Infinite Skills - Creating First-Person Shooter Games with Unity

Infinite Skills - Creating First-Person Shooter Games with Unity

Infinite Skills - Creating First-Person Shooter Games with Unity
WEBRip | English | MP4 + Project files | 1280 x 720 | AVC ~954 kbps | 29.970 fps
AAC | 125 Kbps | 48.0 KHz | 2 channels | 01:22:13 | 701 MB
Genre: Video Tutorial / Game Development

FPS (first-person shooter) games are one of today's most popular game genres. In this hands-on course, you'll learn to use the Unity game engine to build an FPS game all the way from nothing to a complete game.
Designed for learners with a core understanding of the Unity game engine (familiarity with the Inspector, know how to get around scene view, etc.), this video teaches you the skills you need to create your own FPS games.

* Gain experience with creating a complete FPS game using the Unity game engine

* Build the environment, weapons, and the first-person controller

* Discover how to create an AI enemy that can attack the player

* Learn about level design, re-spawning, power-ups, health boosts, and speed pickups

* Understand the Unity remote, mobile controls, adding explosions, and adding audio

* Build a game you can modify and add to later on

Jon Manning is a co-founder of Secret Lab, where he makes games and does research. He has written about a dozen technical books for O'Reilly Media, and wrote two games for ABC Australia's children's TV series Play School and one for Qantas Airways. He's currently working on Button Squid, a top-down puzzler for iOS, and is fond of making cool tools for rad devs.

also You can watch my other last:



General
Complete name : 010 - Creating A Simple Dialogue.mp4
Format

: MPEG-4
Format profile : Base Media / Version 2
Codec ID : mp42
File size : 76.6 MiB
Duration : 9mn 51s
Overall bit rate mode : Variable
Overall bit rate : 1 086 Kbps
Encoded date : UTC 2016-11-10 00:43:33
Tagged date : UTC 2016-11-10 00:43:38
©TIM

: 00:00:00:00
©TSC

: 30000
©TSZ

: 1001

Video
ID

: 1
Format

: AVC
Format/Info : Advanced Video Codec
Format profile : [email protected]
Format settings, CABAC : Yes
Format settings, ReFrames : 3 frames
Format settings, GOP : M=3, N=120
Codec ID : avc1
Codec ID/Info : Advanced Video Coding
Duration : 9mn 51s
Bit rate mode : Variable
Bit rate : 954 Kbps
Maximum bit rate : 3 250 Kbps
Width

: 1 280 pixels
Height

: 720 pixels
Display aspect ratio : 16:9
Frame rate mode : Constant
Frame rate : 29.970 fps
Standard : NTSC
Color space : YUV
Chroma subsampling : 4:2:0
Bit depth : 8 bits
Scan type : Progressive
Bits/(Pixel*Frame) : 0.035
Stream size : 67.3 MiB (88%)
Language : English
Encoded date : UTC 2016-11-10 00:43:33
Tagged date : UTC 2016-11-10 00:43:33
Color range : Limited
Color primaries : BT.709
Transfer characteristics : BT.709
Matrix coefficients : BT.709

Audio
ID

: 2
Format

: AAC
Format/Info : Advanced Audio Codec
Format profile : LC
Codec ID : 40
Duration : 9mn 51s
Source duration : 9mn 52s
Bit rate mode : Variable
Bit rate : 125 Kbps
Maximum bit rate : 187 Kbps
Channel(s) : 2 channels
Channel positions : Front: L R
Sampling rate : 48.0 KHz
Compression mode : Lossy
Stream size : 8.85 MiB (12%)
Source stream size : 8.85 MiB (12%)
Language : English
Encoded date : UTC 2016-11-10 00:43:33
Tagged date : UTC 2016-11-10 00:43:33


Infinite Skills - Creating First-Person Shooter Games with Unity


Infinite Skills - Creating First-Person Shooter Games with Unity


Infinite Skills - Creating First-Person Shooter Games with Unity




Infinite Skills - Creating First-Person Shooter Games with Unity




Infinite Skills - Creating First-Person Shooter Games with Unity



Download:




Tags: Infinite, Skills, Creating, Person, Shooter

Infinite Skills - Creating First-Person Shooter Games with Unity from rapidshare mediafire megaupload hotfile, Infinite Skills - Creating First-Person Shooter Games with Unity via torrent or emule, full free Infinite Skills - Creating First-Person Shooter Games with Unity, Infinite Skills - Creating First-Person Shooter Games with Unity rar zip password or anything related.

Comments:

Name:*
E-Mail:*
Add Comments:
Enter Code: *