Bioinformatics: Life Sciences on Your Computer - Johns Hopkins University

Download Now

Bioinformatics: Life Sciences on Your Computer - Johns Hopkins University

Bioinformatics: Life Sciences on Your Computer - Johns Hopkins University
WEBRip | English | MP4 + PDF Guides | 960 x 540 | AVC ~31.4 kbps | 29.970 fps
AAC | 128 Kbps | 44.1 KHz | 2 channels | Subs: English (.srt) | 03:47:26 | 455 MB
Genre: eLearning Video / Science, Information, Technology, Bioinformatics

What makes bioinformatics education exciting is that people of a variety of education levels can get started quickly, with just a computer and internet access. The DNA sequencing revolution has exploded and new, inexpensive technologies have led to sequences being determined faster than they can be analyzed. Bioinformatics brings together biology, math and computer science into a quickly emerging discipline that turns the computer into a scientific research lab.
The relevance of bioinformatics extends to many disciplines, including health science, molecular biology, genetics, drug discovery, biochemistry, cell biology and education. Its impact is significant. Many scientific researchers with advanced degrees are going back to school to learn computer techniques that have become as essential to new discovery as pipettes and flasks.

This course will introduce some important basic bioinformatics concepts while allowing for the adventurous to explore some topics in further depth if desired.

Includes:

01 Welcome
02 Week 1- Biological Databases
03 Week 2- BLAST Sequence Alignment
04 Week 3- Protein_Bioinformatics
05 Week 4- Prokaryotic_Genomes
06 Week 5- Eukaryotic Genomes Human Variation

also You can watch my other last:



General
Complete name : 02_Eukaryotic_Gene_Structure_10-58.mp4
Format

: MPEG-4
Format profile : Base Media
Codec ID : isom
File size : 13.2 MiB
Duration : 10mn 58s
Overall bit rate : 168 Kbps
Writing application : Lavf55.19.104

Video
ID

: 1
Format

: AVC
Format/Info : Advanced Video Codec
Format profile : [email protected]
Format settings, CABAC : Yes
Format settings, ReFrames : 4 frames
Codec ID : avc1
Codec ID/Info : Advanced Video Coding
Duration : 10mn 58s
Bit rate : 31.4 Kbps
Width

: 960 pixels
Height

: 540 pixels
Display aspect ratio : 16:9
Frame rate mode : Constant
Frame rate : 29.970 fps
Color space : YUV
Chroma subsampling : 4:2:0
Bit depth : 8 bits
Scan type : Progressive
Bits/(Pixel*Frame) : 0.002
Stream size : 2.46 MiB (19%)
Writing library : x264 core 138
Encoding settings : cabac=1 / ref=3 / deblock=1:0:0 / analyse=0x1:0x111 / me=hex / subme=7 / psy=1 / psy_rd=1.00:0.00 / mixed_ref=1 / me_range=16 / chroma_me=1 / trellis=1 / 8x8dct=0 / cqm=0 / deadzone=21,11 / fast_pskip=1 / chroma_qp_offset=-2 / threads=12 / lookahead_threads=2 / sliced_threads=0 / nr=0 / decimate=1 / interlaced=0 / bluray_compat=0 / constrained_intra=0 / bframes=3 / b_pyramid=2 / b_adapt=1 / b_bias=0 / direct=1 / weightb=1 / open_gop=0 / weightp=2 / keyint=250 / keyint_min=25 / scenecut=40 / intra_refresh=0 / rc_lookahead=40 / rc=crf / mbtree=1 / crf=28.0 / qcomp=0.60 / qpmin=0 / qpmax=69 / qpstep=4 / ip_ratio=1.40 / aq=1:1.00
Language : English

Audio
ID

: 2
Format

: AAC
Format/Info : Advanced Audio Codec
Format profile : LC
Codec ID : 40
Duration : 10mn 58s
Bit rate mode : Constant
Bit rate : 128 Kbps
Channel(s) : 2 channels
Channel positions : Front: L R
Sampling rate : 44.1 KHz
Compression mode : Lossy
Stream size : 10.0 MiB (76%)
Language : English


Bioinformatics: Life Sciences on Your Computer - Johns Hopkins University


Bioinformatics: Life Sciences on Your Computer - Johns Hopkins University



Bioinformatics: Life Sciences on Your Computer - Johns Hopkins University



Bioinformatics: Life Sciences on Your Computer - Johns Hopkins University



Bioinformatics: Life Sciences on Your Computer - Johns Hopkins University

Bioinformatics: Life Sciences on Your Computer - Johns Hopkins University



DOWNLOAD:

Direct Download




Tags: Bioinformatics, Sciences, Computer, Hopkins, University

Bioinformatics: Life Sciences on Your Computer - Johns Hopkins University from rapidshare mediafire megaupload hotfile, Bioinformatics: Life Sciences on Your Computer - Johns Hopkins University via torrent or emule, full free Bioinformatics: Life Sciences on Your Computer - Johns Hopkins University, Bioinformatics: Life Sciences on Your Computer - Johns Hopkins University rar zip password or anything related.

Comments:

Name:*
E-Mail:*
Add Comments:
Enter Code: *